General
Complete name : PinkFantasy - Fantasy (Bugs! 1080p).mp4
Format : MPEG-4
Format profile : JVT
Codec ID : avc1 (avc1/mp42)
File size : 457 MiB
Duration : 3 min 28 s
Overall bit rate mode : Constant
Overall bit rate : 18.4 Mb/s
Encoded date : UTC 2019-07-24 03:43:45
Tagged date : UTC 2019-07-24 03:43:45

Video
ID : 1
Format : AVC
Format/Info : Advanced Video Codec
Format profile : [email protected]
Format settings : CABAC / 2 Ref Frames
Format settings, CABAC : Yes
Format settings, ReFrames : 2 frames
Format settings, GOP : M=3, N=30
Codec ID : avc1
Codec ID/Info : Advanced Video Coding
Duration : 3 min 28 s
Bit rate mode : Constant
Bit rate : 18.0 Mb/s
Width : 1 920 pixels
Height : 1 080 pixels
Display aspect ratio : 16:9
Frame rate mode : Constant
Frame rate : 59.940 (60000/1001) FPS
Original frame rate : 29.970 (30000/1001) FPS
Color space : YUV
Chroma subsampling : 4:2:0
Bit depth : 8 bits
Scan type : Interlaced
Scan type, store method : Separated fields
Scan order : Top Field First
Bits/(Pixel*Frame) : 0.145
Stream size : 448 MiB (98%)
Language : English
Encoded date : UTC 2019-07-24 03:43:45
Tagged date : UTC 2019-07-24 03:43:45
Codec configuration box : avcC

Audio
ID : 2
Format : AAC LC
Format/Info : Advanced Audio Codec Low Complexity
Codec ID : mp4a-40-2
Duration : 3 min 28 s
Source duration : 3 min 28 s
Bit rate mode : Constant
Bit rate : 384 kb/s
Channel(s) : 2 channels
Channel layout : L R
Sampling rate : 48.0 kHz
Frame rate : 46.875 FPS (1024 SPF)
Compression mode : Lossy
Stream size : 9.54 MiB (2%)
Source stream size : 9.54 MiB (2%)
Language : English
Encoded date : UTC 2019-07-24 03:43:45
Tagged date : UTC 2019-07-24 03:43:45

Download:

PinkFantasy_-_Fantasy_(Bugs!_1080p).mp4