7月7日七夕の夜、初めての配信ライブでHOME(ライブ)に帰ってきた河村隆一。
やはり河村隆一の真骨頂の歌をお届けするのはライブ・・・そこで配信ライブ第二弾、Cover Night が決定!!
洋邦問わず、ファンの皆さんからいただいたリクエスト曲を中心にどんな歌声を聴かせるか、、再び最前列の興奮を味わってください!

General
Complete name : 0828_1830【LIVE】河村隆一 Ryuichi Kawamura Live2020 「Home」#02【Streaming+】.mp4
Format : MPEG-4
Format profile : Base Media / Version 2
Codec ID : mp42 (mp42/mp41/isom/avc1)
File size : 2.64 GiB
Duration : 2 h 34 min
Overall bit rate mode : Variable
Overall bit rate : 2 443 kb/s
Encoded date : UTC 2020-08-28 13:17:44
Tagged date : UTC 2020-08-28 13:17:44

Video
ID : 1
Format : AVC
Format/Info : Advanced Video Codec
Format profile : [email protected]
Format settings : CABAC / 5 Ref Frames
Format settings, CABAC : Yes
Format settings, Reference fra : 5 frames
Codec ID : avc1
Codec ID/Info : Advanced Video Coding
Duration : 2 h 34 min
Bit rate : 2 185 kb/s
Width : 1 920 pixels
Height : 1 080 pixels
Display aspect ratio : 16:9
Frame rate mode : Constant
Frame rate : 29.970 (30000/1001) FPS
Color space : YUV
Chroma subsampling : 4:2:0
Bit depth : 8 bits
Scan type : Progressive
Bits/(Pixel*Frame) : 0.035
Stream size : 2.37 GiB (89%)
Writing library : x264 core 160 r10 22fcbe1
Encoding settings : cabac=1 / ref=5 / deblock=1:0:0 / analyse=0x3:0x113 / me=hex / subme=8 / psy=1 / psy_rd=1.00:0.00 / mixed_ref=1 / me_range=16 / chroma_me=1 / trellis=2 / 8x8dct=1 / cqm=0 / deadzone=21,11 / fast_pskip=1 / chroma_qp_offset=-2 / threads=34 / lookahead_threads=5 / sliced_threads=0 / nr=0 / decimate=1 / interlaced=0 / bluray_compat=0 / stitchable=1 / constrained_intra=0 / bframes=3 / b_pyramid=2 / b_adapt=2 / b_bias=0 / direct=3 / weightb=1 / open_gop=0 / weightp=2 / keyint=infinite / keyint_min=29 / scenecut=40 / intra_refresh=0 / rc_lookahead=50 / rc=crf / mbtree=1 / crf=20.0 / qcomp=0.60 / qpmin=5 / qpmax=69 / qpstep=4 / vbv_maxrate=5500 / vbv_bufsize=15000 / crf_max=0.0 / nal_hrd=none / filler=0 / ip_ratio=1.40 / aq=1:1.00
Encoded date : UTC 2020-08-28 13:17:44
Tagged date : UTC 2020-08-28 13:17:44
Color range : Limited
Color primaries : BT.709
Transfer characteristics : BT.709
Matrix coefficients : BT.709
Codec configuration box : avcC

Audio
ID : 2
Format : AAC LC
Format/Info : Advanced Audio Codec Low Complexity
Codec ID : mp4a-40-2
Duration : 2 h 34 min
Bit rate mode : Variable
Bit rate : 253 kb/s
Channel(s) : 2 channels
Channel layout : L R
Sampling rate : 48.0 kHz
Frame rate : 46.875 FPS (1024 SPF)
Compression mode : Lossy
Stream size : 281 MiB (10%)
Encoded date : UTC 2020-08-28 13:17:44
Tagged date : UTC 2020-08-28 13:17:44

Download:

RKH2.part1.rar
RKH2.part2.rar
RKH2.part3.rar